<?xml version="1.0" standalone="no"?>
<!DOCTYPE svg PUBLIC "-//W3C//DTD SVG 1.1//EN" "http://www.w3.org/Graphics/SVG/1.1/DTD/svg11.dtd" >
<svg xmlns="http://www.w3.org/2000/svg" xmlns:xlink="http://www.w3.org/1999/xlink" version="1.1">
<metadata>
Created by FontForge 20190801 at Mon Mar 16 09:32:14 2015
 By www-data
copyright missing
</metadata>
<defs>
<font id="VDNHLebedev2Bold" horiz-adv-x="600" >
  <font-face 
    font-family="VDNHLebedev2Bold"
    font-weight="400"
    font-stretch="normal"
    units-per-em="1000"
    panose-1="0 0 5 0 0 0 0 0 0 0"
    ascent="800"
    descent="-200"
    x-height="588"
    cap-height="700"
    bbox="-54 -188 1257 860"
    underline-thickness="50"
    underline-position="-100"
    unicode-range="U+0020-2212"
  />
<missing-glyph horiz-adv-x="500" 
d="M0 0v700h500v-700h-500zM250 395l170 255h-340zM280 350l170 -255v510zM80 50h340l-170 255zM50 605v-510l170 255z" />
    <glyph glyph-name=".notdef" horiz-adv-x="500" 
d="M0 0v700h500v-700h-500zM250 395l170 255h-340zM280 350l170 -255v510zM80 50h340l-170 255zM50 605v-510l170 255z" />
    <glyph glyph-name=".null" horiz-adv-x="0" 
 />
    <glyph glyph-name="nonmarkingreturn" horiz-adv-x="333" 
 />
    <glyph glyph-name="space" unicode=" " horiz-adv-x="321" 
 />
    <glyph glyph-name="exclam" unicode="!" horiz-adv-x="379" 
d="M265 601l-40 -349h-82l-40 347l-1 180h164zM271 194v-194h-175v194h175z" />
    <glyph glyph-name="quotedbl" unicode="&#x22;" horiz-adv-x="471" 
d="M210 762v-322h-131l-4 322h135zM397 762l-5 -322h-131v322h136z" />
    <glyph glyph-name="numbersign" unicode="#" 
 />
    <glyph glyph-name="percent" unicode="%" horiz-adv-x="837" 
 />
    <glyph glyph-name="quotesingle" unicode="'" horiz-adv-x="285" 
d="M210 762v-322h-131l-4 322h135z" />
    <glyph glyph-name="parenleft" unicode="(" horiz-adv-x="495" 
 />
    <glyph glyph-name="parenright" unicode=")" horiz-adv-x="469" 
 />
    <glyph glyph-name="asterisk" unicode="*" horiz-adv-x="561" 
d="M472 530l-133 -25q0 -7 -3 -13l96 -100l-89 -64l-64 119q-4 -1 -14 -1l-66 -121l-88 64l94 98q0 2 -1.5 6t-2.5 6l-137 25l33 104l124 -59q3 3 9 7l-19 140h109l-17 -136q9 -6 10 -7l126 60z" />
    <glyph glyph-name="plus" unicode="+" horiz-adv-x="743" 
 />
    <glyph glyph-name="comma" unicode="," horiz-adv-x="379" 
d="M271 194v-137q0 -66 -21 -135.5t-48 -109.5h-77q28 47 42.5 100.5t14.5 87.5h-86v194h175z" />
    <glyph glyph-name="hyphen" unicode="-" horiz-adv-x="493" 
d="M444 400v-150h-395v150h395z" />
    <glyph glyph-name="period" unicode="." horiz-adv-x="379" 
d="M271 194v-194h-175v194h175z" />
    <glyph glyph-name="slash" unicode="/" 
 />
    <glyph glyph-name="zero" unicode="0" horiz-adv-x="771" 
d="M383 715q161 0 249.5 -94t88.5 -271t-88.5 -271t-249.5 -94t-249 92.5t-88 272.5q0 178 88 271.5t249 93.5zM383 568q-82 0 -129 -53.5t-47 -164.5q0 -112 47 -167t129 -55q83 0 131 55t48 167q0 111 -48 164.5t-131 53.5z" />
    <glyph glyph-name="one" unicode="1" horiz-adv-x="771" 
d="M490 700v-700h-155v496q-97 -128 -205 -132v154q67 18 125.5 71.5t66.5 110.5h168z" />
    <glyph glyph-name="two" unicode="2" horiz-adv-x="771" 
d="M694 147v-147h-611v141l305 195q68 43 94 72t26 70q0 43 -31 71t-98 28q-73 0 -111 -32.5t-41 -84.5h-155q5 120 84.5 185t225.5 65q141 0 215.5 -61t74.5 -167q0 -95 -53.5 -152.5t-157.5 -108.5l-153 -77z" />
    <glyph glyph-name="three" unicode="3" horiz-adv-x="771" 
d="M618 360q40 -16 65 -56t25 -100q0 -217 -310 -217q-157 0 -235.5 47.5t-86.5 155.5h161q6 -78 156 -78q149 0 149 97q0 32 -25 53t-73 21h-125v140l114 1q46 0 73 19.5t27 57.5t-33 63.5t-114 25.5q-153 -1 -153 -82h-158q14 204 308 204q169 0 241 -54t73 -152
q0 -58 -22 -95t-57 -51z" />
    <glyph glyph-name="four" unicode="4" horiz-adv-x="771" 
d="M731 118h-96v-118h-150v118h-453v152q61 25 111.5 56t106.5 81.5t99.5 126.5t68.5 173h169q-24 -140 -124.5 -261t-229.5 -188h252v129h150v-129h96v-140z" />
    <glyph glyph-name="five" unicode="5" horiz-adv-x="771" 
d="M100 700v-381h300q79 0 109 -26t30 -71q0 -44 -32 -69t-112 -25q-88 0 -125 22.5t-38 70.5h-160q5 -118 78.5 -174.5t242.5 -56.5q305 0 305 237q0 223 -260 223h-197v103h417v147h-558z" />
    <glyph glyph-name="six" unicode="6" horiz-adv-x="771" 
d="M422 472q133 0 209.5 -57t76.5 -175q0 -117 -77.5 -183.5t-236.5 -66.5q-166 0 -245 69.5t-80 222.5q0 67 8.5 121.5t35 112t70.5 97t120 64.5t178 25h168v-148h-149q-262 0 -289 -158q45 76 211 76zM392 119q155 0 155 113q0 48 -36.5 81t-113.5 33q-44 0 -78.5 -9.5
t-59.5 -36.5t-25 -70q1 -55 42.5 -83t115.5 -28z" />
    <glyph glyph-name="seven" unicode="7" horiz-adv-x="771" 
d="M675 700v-209q-103 -51 -203.5 -189t-146.5 -302h-183q23 105 70.5 199.5t102.5 159.5t104 108t91 65v11q-123 -3 -426 -3v160h591z" />
    <glyph glyph-name="eight" unicode="8" horiz-adv-x="740" 
d="M369 710q-297 0 -297 -207q0 -115 86 -150q-103 -35 -103 -159q0 -107 71 -158t245 -51q166 0 240 51.5t74 157.5q0 123 -104 159q87 36 87 151q0 98 -77.5 152t-221.5 54zM371 587q142 -1 142 -91q0 -44 -25 -66.5t-98 -22.5h-30q-134 0 -134 89q0 90 145 91zM343 287
h53q68 0 97 -25.5t29 -62.5q0 -87 -153 -89q-72 1 -112 21t-40 68q0 37 29 62.5t97 25.5z" />
    <glyph glyph-name="nine" unicode="9" horiz-adv-x="771" 
d="M398 220q-133 0 -209.5 57t-76.5 175q0 117 77.5 183.5t236.5 66.5q166 0 245 -69.5t80 -222.5q0 -67 -8.5 -121.5t-35 -112t-70.5 -97t-120 -64.5t-178 -25h-168v148h149q262 0 289 158q-45 -76 -211 -76zM428 573q-155 0 -155 -113q0 -48 36.5 -81t113.5 -33
q44 0 78.5 9.5t59.5 36.5t25 70q-1 55 -42.5 83t-115.5 28z" />
    <glyph glyph-name="colon" unicode=":" horiz-adv-x="439" 
d="M271 431v-273h-175v273h175z" />
    <glyph glyph-name="semicolon" unicode=";" horiz-adv-x="379" 
d="M271 634v-194h-175v194h175zM96 194h175v-137q0 -66 -21 -135.5t-48 -109.5h-77q28 47 42.5 100.5t14.5 87.5h-86v194z" />
    <glyph glyph-name="equal" unicode="=" horiz-adv-x="685" 
 />
    <glyph glyph-name="question" unicode="?" horiz-adv-x="659" 
d="M355 438q-72 -16 -107.5 -56.5t-35.5 -123.5h143q0 32 20 48t72 28q103 23 147.5 66.5t44.5 124.5q0 87 -70.5 146t-215.5 59q-148 0 -233.5 -60t-101.5 -160h168q6 35 45 60.5t116 25.5q63 0 97.5 -21.5t34.5 -57.5q0 -39 -32 -52q-25 -13 -92 -27zM374 194v-194h-175
v194h175z" />
    <glyph glyph-name="A" unicode="A" horiz-adv-x="789" 
d="M564 131h-343l-45 -131h-168l256 700h267l250 -700h-172zM513 281l-90 261h-60l-90 -261h240z" />
    <glyph glyph-name="B" unicode="B" horiz-adv-x="811" 
d="M687 363q72 -56 72 -163q0 -84 -53 -142t-157 -58h-450v700h434q102 0 155 -55t55 -137q1 -44 -13.5 -83.5t-42.5 -61.5zM256 557v-143h256q27 0 45.5 14.5t23 35.5t0.5 42.5t-22 36t-44 14.5h-259zM256 143h263q45 0 64 35t1 70t-63 35h-265v-140z" />
    <glyph glyph-name="C" unicode="C" horiz-adv-x="809" 
d="M608 277l164 1q-21 -130 -120.5 -213t-242.5 -83q-163 0 -267.5 104t-104.5 264q0 157 105 262.5t267 105.5q142 0 242.5 -82.5t119.5 -211.5h-166q-15 65 -68.5 104t-126.5 39q-91 0 -146.5 -63t-55.5 -154q0 -92 55.5 -155t147.5 -63q76 0 126.5 38.5t70.5 106.5z" />
    <glyph glyph-name="D" unicode="D" horiz-adv-x="805" 
d="M261 700h156q160 0 255.5 -97.5t95.5 -252.5q0 -159 -94.5 -254.5t-254.5 -95.5h-158h-162v700h162zM261 147h140q88 0 142.5 54t54.5 146q0 93 -53 148.5t-144 55.5h-140v-404z" />
    <glyph glyph-name="E" unicode="E" horiz-adv-x="740" 
d="M259 554v-130h396v-137h-396v-140h418v-147h-578v700h578v-146h-418z" />
    <glyph glyph-name="F" unicode="F" horiz-adv-x="709" 
d="M263 548v-122h405v-150h-405v-276h-164v700h592v-152h-428z" />
    <glyph glyph-name="G" unicode="G" horiz-adv-x="809" 
d="M780 377v-56q-3 -155 -108.5 -247.5t-257.5 -92.5q-170 0 -273.5 102t-103.5 267q0 159 105 264.5t268 105.5q150 0 243 -77.5t119 -202.5h-162q-18 60 -69.5 94.5t-126.5 34.5q-95 0 -151 -62t-56 -157q0 -100 56.5 -159.5t156.5 -59.5q71 0 122.5 34t66.5 90h-141v122
h312z" />
    <glyph glyph-name="H" unicode="H" horiz-adv-x="864" 
d="M765 700v-700h-161v275h-344v-275h-161v700h161v-266h344v266h161z" />
    <glyph glyph-name="I" unicode="I" horiz-adv-x="359" 
d="M262 700v-700h-165v700h165z" />
    <glyph glyph-name="J" unicode="J" horiz-adv-x="765" 
d="M667 700v-450q0 -136 -78.5 -198.5t-246.5 -62.5q-102 0 -169.5 17t-100.5 49.5t-45.5 68t-12.5 84.5h160q3 -39 38 -60.5t129 -21.5q88 0 125 32t37 108v434h164z" />
    <glyph glyph-name="K" unicode="K" horiz-adv-x="805" 
d="M335 337l-77 -66v-271h-159v700h159v-252q142 123 282 252h217l-302 -260l338 -440h-201z" />
    <glyph glyph-name="L" unicode="L" horiz-adv-x="726" 
d="M707 156v-156h-608v700h161v-544h447z" />
    <glyph glyph-name="M" unicode="M" horiz-adv-x="1090" 
d="M992 0h-163l1 533h-14l-186 -529h-175l-189 529h-14l1 -533h-154l1 700h281l170 -491l171 491h268z" />
    <glyph glyph-name="N" unicode="N" horiz-adv-x="889" 
d="M790 700v-700h-155v11l-90 -11q-83 142 -269 536h-23v-536h-154v700h269q148 -274 263 -544h4v544h155z" />
    <glyph glyph-name="O" unicode="O" horiz-adv-x="829" 
d="M415 718q163 0 270 -105.5t107 -262.5t-107 -262.5t-270 -105.5q-165 0 -271.5 104.5t-106.5 263.5q0 157 107 262.5t271 105.5zM415 567q-92 0 -150.5 -61.5t-58.5 -155.5q0 -95 58.5 -156.5t150.5 -61.5t150 61.5t58 156.5q0 94 -58 155.5t-150 61.5z" />
    <glyph glyph-name="P" unicode="P" horiz-adv-x="803" 
d="M99 700h462q59 0 106 -25t71 -64.5t35.5 -87t0 -95.5t-36 -87.5t-71.5 -64.5t-107 -25h-299v-251h-161v700zM260 396h278q36 0 56 24t20 52t-20 52t-56 24h-278v-152z" />
    <glyph glyph-name="Q" unicode="Q" horiz-adv-x="829" 
d="M636 47q35 -37 89 -49l-1 -122q-44 3 -77.5 14t-57 30.5t-36.5 35t-30 40.5q-53 -14 -108 -14q-165 0 -271.5 104.5t-106.5 263.5q0 157 107 262.5t271 105.5q163 0 270 -105.5t107 -262.5q0 -95 -41.5 -174t-114.5 -129zM206 350q0 -92 55.5 -153t144.5 -65v95
q86 -4 135 -55q82 62 82 178q0 94 -58 155.5t-150 61.5t-150.5 -61.5t-58.5 -155.5z" />
    <glyph glyph-name="R" unicode="R" horiz-adv-x="842" 
d="M724 234l4 -77q3 -47 35 -48v-109h-101q-50 0 -67 24.5t-20 81.5l-4 82q-3 66 -74 66h-237v-254h-161v700h439q99 0 154 -59t55 -149q0 -102 -70 -160q44 -31 47 -98zM260 400h250q38 0 59 23.5t21.5 52t-21 52t-59.5 23.5h-250v-151z" />
    <glyph glyph-name="S" unicode="S" horiz-adv-x="803" 
d="M561 495h170q-53 218 -371 218q-160 0 -231.5 -63t-70.5 -156q1 -130 122 -178q57 -24 201 -47q114 -19 150 -31q54 -18 54 -63q1 -37 -30.5 -50.5t-105.5 -13.5q-198 0 -246 110h-157q11 -54 36 -94t71.5 -72.5t124 -49.5t185.5 -17q150 0 215.5 53.5t63.5 149.5
q-1 121 -107 181q-55 32 -207 56q-120 19 -153 28q-60 18 -60 58q-1 36 36 55t101 19q144 0 209 -93z" />
    <glyph glyph-name="T" unicode="T" horiz-adv-x="731" 
d="M722 546h-275v-546h-163v546h-275v154h713v-154z" />
    <glyph glyph-name="U" unicode="U" horiz-adv-x="845" 
d="M603 701v-426q0 -81 -45.5 -112.5t-135.5 -31.5q-88 0 -134 31.5t-46 111.5v426h-161v-446q0 -152 83.5 -209.5t256.5 -57.5q174 0 258.5 55.5t84.5 199.5v459h-161z" />
    <glyph glyph-name="V" unicode="V" horiz-adv-x="784" 
d="M776 700l-264 -700h-238l-266 700h190l188 -527h27l186 527h177z" />
    <glyph glyph-name="W" unicode="W" horiz-adv-x="1082" 
d="M1074 700l-183 -700h-230l-111 288l-111 -288h-212l-219 700h179l148 -522h19l130 348h157l120 -347h17l135 521h161z" />
    <glyph glyph-name="X" unicode="X" horiz-adv-x="776" 
d="M559 0l-173 242l-182 -242h-182l278 360l-254 340h186l160 -220l165 220h182l-261 -337l275 -363h-194z" />
    <glyph glyph-name="Y" unicode="Y" horiz-adv-x="806" 
d="M482 282v-282h-156v279l-319 421h199l204 -270l202 270h187z" />
    <glyph glyph-name="Z" unicode="Z" horiz-adv-x="725" 
d="M674 149v-149h-624v149l379 402h-379v149h614v-149l-382 -402h392z" />
    <glyph glyph-name="bracketleft" unicode="[" horiz-adv-x="533" 
 />
    <glyph glyph-name="backslash" unicode="\" 
 />
    <glyph glyph-name="bracketright" unicode="]" horiz-adv-x="482" 
 />
    <glyph glyph-name="asciicircum" unicode="^" 
 />
    <glyph glyph-name="underscore" unicode="_" 
 />
    <glyph glyph-name="a" unicode="a" horiz-adv-x="693" 
d="M608 404v-222q0 -43 10.5 -59t46.5 -16v-107h-107q-84 0 -87 65q-30 -35 -92 -56t-137 -21q-186 0 -186 147q0 86 68 135q45 35 156 59l191 45v34q0 43 -25 62.5t-81 19.5q-138 0 -161 -86l-140 -2q24 200 314 200q70 0 117 -15t71 -44.5t33 -62t9 -76.5zM471 278
l-176 -48q-47 -12 -66 -24q-27 -18 -27 -53q0 -52 82 -52q74 0 130.5 33t56.5 98v46z" />
    <glyph glyph-name="b" unicode="b" horiz-adv-x="709" 
d="M401 603q123 0 197 -88.5t74 -222.5q0 -133 -73 -219.5t-198 -86.5q-113 0 -182 72v-58h-144v760h144v-227q68 70 182 70zM370 111q72 0 110.5 51.5t38.5 129.5q0 79 -38.5 132.5t-110.5 53.5q-73 0 -112 -53t-39 -132q0 -78 38.5 -130t112.5 -52z" />
    <glyph glyph-name="c" unicode="c" horiz-adv-x="671" 
d="M635 359h-142q-12 53 -49.5 85t-95.5 32q-73 0 -116.5 -53t-43.5 -129t43.5 -128.5t116.5 -52.5q57 0 94 29t50 79h142q-19 -103 -95.5 -169.5t-190.5 -66.5q-139 0 -225 86.5t-86 223.5q0 134 86 221t225 87q120 0 199.5 -69.5t87.5 -174.5z" />
    <glyph glyph-name="d" unicode="d" horiz-adv-x="709" 
d="M634 760v-760h-144v58q-69 -72 -182 -72q-125 0 -198 86.5t-73 219.5q0 134 74 222.5t197 88.5q114 0 182 -70v227h144zM339 111q74 0 112.5 52t38.5 130q0 79 -39 132t-112 53q-72 0 -110.5 -53.5t-38.5 -132.5q0 -78 38.5 -129.5t110.5 -51.5z" />
    <glyph glyph-name="e" unicode="e" horiz-adv-x="671" 
d="M341 603q135 0 214 -90t75 -261h-444q2 -61 46 -102t114 -41q102 0 141 94h137q-25 -97 -98 -157.5t-185 -60.5q-141 0 -222.5 84.5t-81.5 219.5q0 137 83.5 225.5t220.5 88.5zM339 481q-54 0 -95.5 -31.5t-52.5 -84.5h289q-8 54 -46 85t-95 31z" />
    <glyph glyph-name="f" unicode="f" horiz-adv-x="416" 
d="M409 647l-88 1q-33 0 -45.5 -12.5t-12.5 -44.5v-18h131v-115h-131v-458h-147v458h-93v115h93v44q0 80 34 114.5t116 34.5q87 0 145 -4z" />
    <glyph glyph-name="g" unicode="g" horiz-adv-x="694" 
d="M619 588v-541q0 -73 -15.5 -119t-52.5 -71.5t-87 -34.5t-131 -9h-26q-79 0 -131 12.5t-78 37t-35.5 51.5t-11.5 65h145q15 -50 125 -50h25q72 0 103.5 28t31.5 96v24q-65 -73 -177 -73q-124 0 -195.5 81t-71.5 216q0 131 72 216.5t195 85.5q113 0 177 -76v61h138z
M335 117q71 0 107.5 50.5t36.5 128.5t-36.5 129t-107.5 51t-108 -51t-37 -129t37 -128.5t108 -50.5z" />
    <glyph glyph-name="h" unicode="h" horiz-adv-x="685" 
d="M411 604q90 0 145 -47t55 -143v-414h-144v368q0 102 -100 102q-62 0 -105 -38t-43 -113v-319h-144v760h139v-232q77 76 197 76z" />
    <glyph glyph-name="i" unicode="i" horiz-adv-x="293" 
d="M227 734v-110h-161v110h161zM74 0v581h146l-1 -581h-145z" />
    <glyph glyph-name="j" unicode="j" horiz-adv-x="311" 
d="M245 732v-107h-167v107h167zM3 -184v118q55 1 70.5 17.5t15.5 82.5v548h145v-543q0 -53 -1 -79.5t-8 -57t-19 -43t-36.5 -24.5t-58 -15.5t-85.5 -3.5h-23z" />
    <glyph glyph-name="k" unicode="k" horiz-adv-x="669" 
d="M277 263l-57 -53v-210h-146v760h146v-375l209 203h199l-234 -216l272 -372h-191z" />
    <glyph glyph-name="l" unicode="l" horiz-adv-x="294" 
d="M73 0v760h146v-760h-146z" />
    <glyph glyph-name="m" unicode="m" horiz-adv-x="1011" 
d="M745 603q83 0 137 -46t54 -146v-411h-144v375q0 96 -86 96q-49 0 -89 -38.5t-40 -106.5v-326h-143v376q0 95 -85 95q-50 0 -90 -40t-40 -111v-320h-144v588h139v-65q71 80 180 80q116 0 160 -84q68 84 191 84z" />
    <glyph glyph-name="n" unicode="n" horiz-adv-x="685" 
d="M214 588v-60q77 76 197 76q90 0 145 -47t55 -143v-414h-144v368q0 102 -100 102q-62 0 -105 -38t-43 -113v-319h-144v588h139z" />
    <glyph glyph-name="o" unicode="o" horiz-adv-x="696" 
d="M348 603q140 0 225.5 -87t85.5 -221q0 -135 -85.5 -222.5t-225.5 -87.5q-139 0 -225 87.5t-86 221.5t86 221.5t225 87.5zM348 475q-73 0 -116 -52.5t-43 -128.5t43 -129t116 -53t116 53t43 130q0 76 -43 128t-116 52z" />
    <glyph glyph-name="p" unicode="p" horiz-adv-x="709" 
d="M401 602q125 0 198 -86.5t73 -219.5q0 -134 -74 -222.5t-197 -88.5q-114 0 -182 70v-227h-144v760h144v-58q69 72 182 72zM370 110q72 0 110.5 53.5t38.5 132.5q0 78 -38.5 129.5t-110.5 51.5q-74 0 -112.5 -52t-38.5 -130q0 -79 39 -132t112 -53z" />
    <glyph glyph-name="q" unicode="q" horiz-adv-x="709" 
d="M634 588v-760h-144v227q-68 -70 -182 -70q-123 0 -197 88.5t-74 222.5q0 133 73 219.5t198 86.5q113 0 182 -72v58h144zM339 110q73 0 111.5 53t38.5 132t-38.5 130.5t-111.5 51.5q-72 0 -110.5 -51.5t-38.5 -129.5q0 -79 38.5 -132.5t110.5 -53.5z" />
    <glyph glyph-name="r" unicode="r" horiz-adv-x="554" 
d="M230 588l-3 -70q56 85 165 85q139 0 139 -141v-76l-126 -1q0 38 -11 58.5t-48 20.5q-48 0 -80 -50t-32 -143v-271h-149v588h145z" />
    <glyph glyph-name="s" unicode="s" horiz-adv-x="671" 
d="M354 363q-90 11 -123.5 23.5t-33.5 43.5q0 27 27.5 41t77.5 13q58 -1 104 -18.5t61 -54.5l150 -2q-39 194 -309 194q-121 0 -185 -52.5t-64 -140.5q0 -94 77 -139q69 -41 209 -55q75 -8 109.5 -20.5t34.5 -42.5q0 -59 -124 -52q-161 8 -185 100l-133 1q18 -217 331 -217
q246 0 246 181q0 93 -73 140q-61 40 -197 57z" />
    <glyph glyph-name="t" unicode="t" horiz-adv-x="422" 
d="M257 473v-283q0 -42 14.5 -59t54.5 -17h72v-113q-29 -2 -128 -2q-95 0 -125 35t-30 126v313h-91v115h91v58l142 89v-147h143v-115h-143z" />
    <glyph glyph-name="u" unicode="u" horiz-adv-x="685" 
d="M471 0v60q-77 -76 -197 -76q-90 0 -145 47t-55 143v414h144v-368q0 -102 100 -102q62 0 105 38t43 113v319h144v-588h-139z" />
    <glyph glyph-name="v" unicode="v" horiz-adv-x="629" 
d="M624 588l-184 -588h-232l-202 588h161l146 -446h24l135 446h152z" />
    <glyph glyph-name="w" unicode="w" horiz-adv-x="1020" 
d="M1015 588l-177 -588h-219l-107 340l-107 -340h-208l-191 588h157l135 -447h18l126 407h160l119 -407h15l131 447h148z" />
    <glyph glyph-name="x" unicode="x" horiz-adv-x="643" 
d="M451 0l-135 193l-134 -193h-174l222 306l-202 282h179l115 -165l115 165h170l-199 -277l226 -311h-183z" />
    <glyph glyph-name="y" unicode="y" horiz-adv-x="645" 
d="M629 588l-269 -653q-27 -65 -60 -88.5t-86 -23.5h-120v130h59q36 0 52.5 8.5t29.5 38.5l20 44l-238 544h171l145 -358l139 358h157z" />
    <glyph glyph-name="z" unicode="z" horiz-adv-x="608" 
d="M575 456l-332 -324h332v-132h-539v132l330 324h-330v132h539v-132z" />
    <glyph glyph-name="braceleft" unicode="{" 
 />
    <glyph glyph-name="braceright" unicode="}" 
 />
    <glyph glyph-name="exclamdown" unicode="&#xa1;" 
 />
    <glyph glyph-name="guillemotleft" unicode="&#xab;" horiz-adv-x="608" 
d="M323 477l-74 -222l74 -220h-129l-100 220l100 222h129zM571 477l-69 -222l69 -220h-130l-94 220l94 222h130z" />
    <glyph glyph-name="periodcentered" unicode="&#xb7;" 
 />
    <glyph glyph-name="guillemotright" unicode="&#xbb;" horiz-adv-x="608" 
d="M317 255l-93 -220h-130l68 220l-68 222h130zM571 255l-100 -220h-129l74 220l-74 222h129z" />
    <glyph glyph-name="multiply" unicode="&#xd7;" horiz-adv-x="650" 
 />
    <glyph glyph-name="uni0401" unicode="&#x401;" horiz-adv-x="740" 
d="M322 732h-145v95h145v-95zM608 732h-145v95h145v-95zM259 554v-130h396v-137h-396v-140h418v-147h-578v700h578v-146h-418z" />
    <glyph glyph-name="uni0405" unicode="&#x405;" horiz-adv-x="803" 
d="M561 495h170q-53 218 -371 218q-160 0 -231.5 -63t-70.5 -156q1 -130 122 -178q57 -24 201 -47q114 -19 150 -31q54 -18 54 -63q1 -37 -30.5 -50.5t-105.5 -13.5q-198 0 -246 110h-157q11 -54 36 -94t71.5 -72.5t124 -49.5t185.5 -17q150 0 215.5 53.5t63.5 149.5
q-1 121 -107 181q-55 32 -207 56q-120 19 -153 28q-60 18 -60 58q-1 36 36 55t101 19q144 0 209 -93z" />
    <glyph glyph-name="uni0406" unicode="&#x406;" horiz-adv-x="359" 
d="M262 700v-700h-165v700h165z" />
    <glyph glyph-name="uni0408" unicode="&#x408;" horiz-adv-x="765" 
d="M667 700v-450q0 -136 -78.5 -198.5t-246.5 -62.5q-102 0 -169.5 17t-100.5 49.5t-45.5 68t-12.5 84.5h160q3 -39 38 -60.5t129 -21.5q88 0 125 32t37 108v434h164z" />
    <glyph glyph-name="uni0410" unicode="&#x410;" horiz-adv-x="789" 
d="M564 131h-343l-45 -131h-168l256 700h267l250 -700h-172zM513 281l-90 261h-60l-90 -261h240z" />
    <glyph glyph-name="uni0411" unicode="&#x411;" horiz-adv-x="795" 
d="M250 427h289q58 0 103.5 -23.5t68.5 -61t34 -83t0 -91.5t-34 -83.5t-68.5 -61t-103.5 -23.5h-440v700h606v-148h-455v-125zM250 148h274q34 0 53.5 21t19.5 47t-19.5 47t-53.5 21h-274v-136z" />
    <glyph glyph-name="uni0412" unicode="&#x412;" horiz-adv-x="811" 
d="M687 363q72 -56 72 -163q0 -84 -53 -142t-157 -58h-450v700h434q102 0 155 -55t55 -137q1 -44 -13.5 -83.5t-42.5 -61.5zM256 557v-143h256q27 0 45.5 14.5t23 35.5t0.5 42.5t-22 36t-44 14.5h-259zM256 143h263q45 0 64 35t1 70t-63 35h-265v-140z" />
    <glyph glyph-name="uni0413" unicode="&#x413;" horiz-adv-x="689" 
d="M681 546h-418v-546h-164v700h582v-154z" />
    <glyph glyph-name="uni0414" unicode="&#x414;" horiz-adv-x="829" 
d="M791 -157h-140v157h-483v-157h-144v291h58q59 30 100 101.5t57 155.5q22 120 20 309h429v-566h103v-291zM526 566h-129l-2 -37q-7 -126 -43 -233.5t-98 -160.5h272v431z" />
    <glyph glyph-name="uni0415" unicode="&#x415;" horiz-adv-x="740" 
d="M259 554v-130h396v-137h-396v-140h418v-147h-578v700h578v-146h-418z" />
    <glyph glyph-name="uni0416" unicode="&#x416;" horiz-adv-x="1213" 
d="M1073 285l5 -111q1 -28 13.5 -37.5t53.5 -9.5v-127h-112q-58 0 -80.5 26t-26.5 103l-5 89q-1 39 -17 52t-54 13h-163v-283h-160v283h-165q-38 0 -53.5 -13t-16.5 -52l-5 -89q-4 -77 -26.5 -103t-80.5 -26h-112v127q41 0 53.5 9.5t13.5 37.5l5 111q2 64 40 91
q-32 25 -32 74l-3 74q-1 34 -11.5 45t-49.5 11v120h104q103 0 106 -106l1 -101q1 -56 54 -56h178v263h160v-263h177q53 0 53 56l2 101q3 106 106 106h104v-120q-39 0 -49.5 -11t-12.5 -45l-2 -74q-2 -51 -33 -74q38 -26 41 -91z" />
    <glyph glyph-name="uni0417" unicode="&#x417;" horiz-adv-x="748" 
d="M617 366q41 -23 61.5 -64t20.5 -87q0 -49 -13.5 -87.5t-46.5 -72t-96.5 -51.5t-154.5 -18q-182 0 -261 65.5t-81 198.5h155q2 -66 45.5 -99.5t137.5 -33.5q150 0 150 91q0 35 -23.5 56t-69.5 21h-184v133l180 1q43 1 65 21t22 54q0 91 -149 91q-167 0 -173 -120h-153
q4 252 335 252q86 0 148 -18t94.5 -49.5t47 -66t14.5 -74.5q1 -47 -18.5 -85.5t-52.5 -57.5z" />
    <glyph glyph-name="uni0418" unicode="&#x418;" horiz-adv-x="864" 
d="M765 700v-700h-161l1 503l-29 -55l-288 -448h-189l1 700h160l-1 -504l26 50l286 454h194z" />
    <glyph glyph-name="uni0419" unicode="&#x419;" horiz-adv-x="854" 
d="M531 734h-192q-87 0 -119 26t-32 81v19h117q8 -37 63 -37h124q28 0 42.5 8t20.5 29h117v-18q0 -55 -30.5 -81.5t-110.5 -26.5zM765 700v-700h-161l1 503l-29 -55l-288 -448h-189l1 700h160l-1 -504l26 50l286 454h194z" />
    <glyph glyph-name="uni041A" unicode="&#x41a;" horiz-adv-x="806" 
d="M685 285l5 -111q1 -28 13.5 -37.5t53.5 -9.5v-127h-112q-58 0 -80.5 26t-26.5 103l-5 89q-1 39 -17 52t-54 13h-203v-283h-160v700h160v-263h217q53 0 53 56l2 101q3 106 106 106h104v-120q-39 0 -49.5 -11t-12.5 -45l-2 -74q-2 -51 -33 -74q38 -26 41 -91z" />
    <glyph glyph-name="uni041B" unicode="&#x41b;" horiz-adv-x="816" 
d="M717 700v-700h-161v550h-210q-41 0 -55 -18t-16 -62l-6 -282q-1 -47 -6 -75.5t-19 -57t-44 -42t-77 -13.5h-94v127q55 0 69.5 13.5t16.5 63.5l6 293q1 38 4 64t13 54.5t28 45.5t50 28t77 11h424z" />
    <glyph glyph-name="uni041C" unicode="&#x41c;" horiz-adv-x="1090" 
d="M992 0h-163l1 533h-14l-186 -529h-175l-189 529h-14l1 -533h-154l1 700h281l170 -491l171 491h268z" />
    <glyph glyph-name="uni041D" unicode="&#x41d;" horiz-adv-x="864" 
d="M765 700v-700h-161v275h-344v-275h-161v700h161v-266h344v266h161z" />
    <glyph glyph-name="uni041E" unicode="&#x41e;" horiz-adv-x="829" 
d="M415 718q163 0 270 -105.5t107 -262.5t-107 -262.5t-270 -105.5q-165 0 -271.5 104.5t-106.5 263.5q0 157 107 262.5t271 105.5zM415 567q-92 0 -150.5 -61.5t-58.5 -155.5q0 -95 58.5 -156.5t150.5 -61.5t150 61.5t58 156.5q0 94 -58 155.5t-150 61.5z" />
    <glyph glyph-name="uni041F" unicode="&#x41f;" horiz-adv-x="859" 
d="M760 700v-700h-165v534h-331v-534h-165v700h661z" />
    <glyph glyph-name="uni0420" unicode="&#x420;" horiz-adv-x="803" 
d="M99 700h462q59 0 106 -25t71 -64.5t35.5 -87t0 -95.5t-36 -87.5t-71.5 -64.5t-107 -25h-299v-251h-161v700zM260 396h278q36 0 56 24t20 52t-20 52t-56 24h-278v-152z" />
    <glyph glyph-name="uni0421" unicode="&#x421;" horiz-adv-x="809" 
d="M608 277l164 1q-21 -130 -120.5 -213t-242.5 -83q-163 0 -267.5 104t-104.5 264q0 157 105 262.5t267 105.5q142 0 242.5 -82.5t119.5 -211.5h-166q-15 65 -68.5 104t-126.5 39q-91 0 -146.5 -63t-55.5 -154q0 -92 55.5 -155t147.5 -63q76 0 126.5 38.5t70.5 106.5z" />
    <glyph glyph-name="uni0422" unicode="&#x422;" horiz-adv-x="731" 
d="M722 546h-275v-546h-163v546h-275v154h713v-154z" />
    <glyph glyph-name="uni0423" unicode="&#x423;" horiz-adv-x="775" 
d="M762 700l-306 -587q-34 -65 -67.5 -89t-101.5 -24h-152v147h100q35 0 57.5 11t38.5 42l7 14l-314 486h204l195 -317l160 317h179z" />
    <glyph glyph-name="uni0424" unicode="&#x424;" horiz-adv-x="1110" 
d="M635 624h210q75 0 130.5 -35.5t80.5 -88t25 -114.5t-25 -114.5t-80.5 -88t-130.5 -35.5h-210v-161h-159v161h-211q-75 0 -130 35.5t-80 88t-25 114.5t25 114.5t80 88t130 35.5h211v128h159v-128zM476 292v188h-192q-34 0 -57.5 -19.5t-29 -47t0 -55t29 -47t58.5 -19.5
h191zM635 292h194q34 0 58 19.5t29.5 47t0 55t-29 47t-57.5 19.5h-195v-188z" />
    <glyph glyph-name="uni0425" unicode="&#x425;" horiz-adv-x="776" 
d="M559 0l-173 242l-182 -242h-182l278 360l-254 340h186l160 -220l165 220h182l-261 -337l275 -363h-194z" />
    <glyph glyph-name="uni0426" unicode="&#x426;" horiz-adv-x="899" 
d="M864 147v-313h-137v166h-628v700h162v-545h315v545h165v-553h123z" />
    <glyph glyph-name="uni0427" unicode="&#x427;" horiz-adv-x="784" 
d="M685 700v-700h-156v291h-267q-110 0 -162 43t-52 159v207h157v-167q0 -60 19.5 -77t79.5 -17h225v261h156z" />
    <glyph glyph-name="uni0428" unicode="&#x428;" horiz-adv-x="1228" 
d="M1129 0h-1030v700h161v-546h273v546h162v-546h273v546h161v-700z" />
    <glyph glyph-name="uni0429" unicode="&#x429;" horiz-adv-x="1291" 
d="M1257 147v-313h-138v166h-1020v700h161v-546h273v546h162v-546h273v546h161v-553h128z" />
    <glyph glyph-name="uni042A" unicode="&#x42a;" horiz-adv-x="851" 
d="M308 444h299q60 0 107 -24.5t71.5 -63.5t36 -86.5t0 -95t-35.5 -86.5t-71 -63.5t-106 -24.5h-462v565h-201v135h362v-256zM308 149h278q36 0 56 24t20 52.5t-20 52.5t-56 24h-278v-153z" />
    <glyph glyph-name="uni042B" unicode="&#x42b;" horiz-adv-x="1091" 
d="M260 443h265q68 0 117.5 -33t72 -82t22.5 -106.5t-22.5 -106.5t-72 -82t-117.5 -33h-426v700h161v-257zM992 700v-700h-165v700h165zM260 151h235q36 0 56 23.5t20 51.5t-20 51.5t-56 23.5h-235v-150z" />
    <glyph glyph-name="uni042C" unicode="&#x42c;" horiz-adv-x="803" 
d="M260 444h299q60 0 107 -24.5t71.5 -63.5t36 -86.5t0 -95t-35.5 -86.5t-71 -63.5t-106 -24.5h-462v700h161v-256zM260 149h278q36 0 56 24t20 52.5t-20 52.5t-56 24h-278v-153z" />
    <glyph glyph-name="uni042D" unicode="&#x42d;" horiz-adv-x="828" 
d="M412 713q162 0 266.5 -103.5t104.5 -259.5q0 -159 -103.5 -261t-265.5 -102q-149 0 -247.5 78t-115.5 207h157q18 -64 71 -103.5t131 -39.5q81 0 134.5 43.5t69.5 115.5h-298v128h297q-19 69 -72 111t-132 42q-75 0 -125 -34t-72 -93h-160q22 118 120.5 194.5t239.5 76.5
z" />
    <glyph glyph-name="uni042E" unicode="&#x42e;" horiz-adv-x="1169" 
d="M731 718q160 0 264.5 -105.5t104.5 -262.5t-104.5 -262.5t-264.5 -105.5q-139 0 -236 80t-121 210h-111v-272h-165v700h165v-281h110q22 132 119.5 215.5t238.5 83.5zM732 132q90 0 147 61.5t57 156.5q0 94 -57 155.5t-147 61.5t-147 -61.5t-57 -155.5q0 -95 57 -156.5
t147 -61.5z" />
    <glyph glyph-name="uni042F" unicode="&#x42f;" horiz-adv-x="792" 
d="M693 700v-700h-161v250h-200l-116 -250h-170l131 269q-49 15 -82 54t-44.5 86.5t-3.5 99t33 94t72 70t107 27.5h434zM532 389v169h-249q-52 0 -72.5 -42t2 -84.5t76.5 -42.5h243z" />
    <glyph glyph-name="uni0430" unicode="&#x430;" horiz-adv-x="693" 
d="M608 404v-222q0 -43 10.5 -59t46.5 -16v-107h-107q-84 0 -87 65q-30 -35 -92 -56t-137 -21q-186 0 -186 147q0 86 68 135q45 35 156 59l191 45v34q0 43 -25 62.5t-81 19.5q-138 0 -161 -86l-140 -2q24 200 314 200q70 0 117 -15t71 -44.5t33 -62t9 -76.5zM471 278
l-176 -48q-47 -12 -66 -24q-27 -18 -27 -53q0 -52 82 -52q74 0 130.5 33t56.5 98v46z" />
    <glyph glyph-name="uni0431" unicode="&#x431;" horiz-adv-x="682" 
d="M365 581q125 0 202.5 -81t77.5 -207q0 -134 -80 -220.5t-216 -86.5q-147 0 -229.5 88.5t-82.5 264.5q0 89 4 142t27 116.5t67 101.5q25 22 53.5 36t62.5 19.5t59.5 7.5t69 3t65.5 2q15 1 25 7t13 12t6 16l113 -1q-1 -75 -16.5 -109.5t-58.5 -42.5q-39 -9 -92.5 -11.5
t-92.5 -2t-81 -10.5t-70 -37q-49 -47 -59 -144l5 2q53 135 228 135zM342 112q70 0 110.5 51t40.5 123q0 74 -39 123.5t-109 49.5q-71 0 -110 -48.5t-39 -125.5q0 -72 38.5 -122.5t107.5 -50.5z" />
    <glyph glyph-name="uni0432" unicode="&#x432;" horiz-adv-x="685" 
d="M75 588h387q74 0 116 -47t42 -112q0 -91 -56 -128q35 -16 51.5 -52.5t16.5 -78.5q0 -70 -43.5 -120t-122.5 -50h-391v588zM215 350h214q36 0 50.5 28.5t-1.5 57t-52 28.5h-211v-114zM215 121h217q38 0 53 28.5t-0.5 57.5t-53.5 29h-216v-115z" />
    <glyph glyph-name="uni0433" unicode="&#x433;" horiz-adv-x="536" 
d="M524 447l-305 1v-448h-144v588h450z" />
    <glyph glyph-name="uni0434" unicode="&#x434;" horiz-adv-x="674" 
d="M652 120v-257h-129v137h-388v-137h-130v257h36q57 19 96 86q36 61 48.5 145t12.5 237h368v-468h86zM428 120v344h-108q-6 -126 -33.5 -210t-85.5 -134h227z" />
    <glyph glyph-name="uni0435" unicode="&#x435;" horiz-adv-x="671" 
d="M341 603q135 0 214 -90t75 -261h-444q2 -61 46 -102t114 -41q102 0 141 94h137q-25 -97 -98 -157.5t-185 -60.5q-141 0 -222.5 84.5t-81.5 219.5q0 137 83.5 225.5t220.5 88.5zM339 481q-54 0 -95.5 -31.5t-52.5 -84.5h289q-8 54 -46 85t-95 31z" />
    <glyph glyph-name="uni0436" unicode="&#x436;" horiz-adv-x="992" 
d="M888 244l4 -97q1 -25 12.5 -30.5t46.5 -5.5v-111h-83q-57 0 -81.5 16.5t-25.5 73.5l-3 71q-1 37 -11 49t-49 12h-128v-222h-141v222h-135q-39 0 -49 -12t-11 -49l-3 -71q-1 -57 -25 -73.5t-82 -16.5h-83v111q24 0 34 1.5t17.5 9.5t7.5 25l4 97q2 38 27 66q-19 24 -22 64
l-4 63q-2 29 -13.5 35.5t-47.5 6.5v109h85q49 0 74 -23t28 -79l4 -70q2 -60 49 -60h145v232h141v-232h138q47 0 49 60l4 70q3 56 28 79t74 23h85v-109q-26 0 -36 -1.5t-17 -10.5t-8 -30l-4 -63q-3 -40 -22 -64q25 -28 27 -66z" />
    <glyph glyph-name="uni0437" unicode="&#x437;" horiz-adv-x="664" 
d="M536 303q63 -43 62 -122q0 -41 -11.5 -73t-40 -61t-85 -44.5t-137.5 -15.5q-70 0 -122.5 13.5t-82 33.5t-47.5 50.5t-23.5 58t-6.5 61.5h133q3 -44 35 -73t118 -29q123 0 123 74q0 28 -17.5 45t-53.5 17h-132v118h123q68 0 68 58q0 73 -120 73q-42 0 -70.5 -9.5
t-42 -26.5t-19 -32.5t-7.5 -35.5h-132q2 43 14 78t40 68.5t84 52.5t137 19q262 0 262 -189q0 -73 -49 -109z" />
    <glyph glyph-name="uni0438" unicode="&#x438;" horiz-adv-x="685" 
d="M611 588v-588h-141l3 399l-48 -88l-194 -311h-156v588h140l-3 -406l56 103l188 303h155z" />
    <glyph glyph-name="uni0439" unicode="&#x439;" horiz-adv-x="686" 
d="M367 624h-38q-85 0 -123 23t-38 76v13l109 3q0 -34 63 -34h17q62 0 62 34l109 -3v-12q0 -54 -38 -77t-123 -23zM611 588v-588h-141l3 399l-48 -88l-194 -311h-156v588h140l-3 -406l56 103l188 303h155z" />
    <glyph glyph-name="uni043A" unicode="&#x43a;" horiz-adv-x="666" 
d="M554 244l4 -97q1 -25 12.5 -30.5t46.5 -5.5v-111h-84q-57 0 -81 16.5t-26 73.5l-2 71q-2 37 -11.5 49t-48.5 12h-145v-222h-144v588h144v-232h155q46 0 49 60l3 70q3 56 28 79t75 23h85v-109q-26 0 -36 -1.5t-17 -10.5t-8 -30l-4 -63q-3 -38 -22 -64q25 -27 27 -66z" />
    <glyph glyph-name="uni043B" unicode="&#x43b;" horiz-adv-x="641" 
d="M567 0h-144v452h-76q-28 0 -40 -11.5t-19 -43.5l-65 -290q-24 -107 -117 -107h-106v112h35q15 0 24.5 2t19.5 14t15 34l69 312q14 67 49 90.5t99 23.5h256v-588z" />
    <glyph glyph-name="uni043C" unicode="&#x43c;" horiz-adv-x="885" 
d="M300 588l141 -404l146 404h221l3 -588h-143l1 428h-8l-155 -424h-142l-155 424h-4l3 -428h-133l1 588h224z" />
    <glyph glyph-name="uni043D" unicode="&#x43d;" horiz-adv-x="685" 
d="M611 588v-588h-144v225h-248v-225h-144v588h144v-221h248v221h144z" />
    <glyph glyph-name="uni043E" unicode="&#x43e;" horiz-adv-x="696" 
d="M348 603q140 0 225.5 -87t85.5 -221q0 -135 -85.5 -222.5t-225.5 -87.5q-139 0 -225 87.5t-86 221.5t86 221.5t225 87.5zM348 475q-73 0 -116 -52.5t-43 -128.5t43 -129t116 -53t116 53t43 130q0 76 -43 128t-116 52z" />
    <glyph glyph-name="uni043F" unicode="&#x43f;" horiz-adv-x="685" 
d="M611 588v-588h-145v446h-247v-446h-144v588h536z" />
    <glyph glyph-name="uni0440" unicode="&#x440;" horiz-adv-x="709" 
d="M401 602q125 0 198 -86.5t73 -219.5q0 -134 -74 -222.5t-197 -88.5q-114 0 -182 70v-227h-144v760h144v-58q69 72 182 72zM370 110q72 0 110.5 53.5t38.5 132.5q0 78 -38.5 129.5t-110.5 51.5q-74 0 -112.5 -52t-38.5 -130q0 -79 39 -132t112 -53z" />
    <glyph glyph-name="uni0441" unicode="&#x441;" horiz-adv-x="671" 
d="M635 359h-142q-12 53 -49.5 85t-95.5 32q-73 0 -116.5 -53t-43.5 -129t43.5 -128.5t116.5 -52.5q57 0 94 29t50 79h142q-19 -103 -95.5 -169.5t-190.5 -66.5q-139 0 -225 86.5t-86 223.5q0 134 86 221t225 87q120 0 199.5 -69.5t87.5 -174.5z" />
    <glyph glyph-name="uni0442" unicode="&#x442;" horiz-adv-x="611" 
d="M600 451h-219v-451h-150v451h-220v137h589v-137z" />
    <glyph glyph-name="uni0443" unicode="&#x443;" horiz-adv-x="645" 
d="M629 588l-269 -653q-27 -65 -60 -88.5t-86 -23.5h-120v130h59q36 0 52.5 8.5t29.5 38.5l20 44l-238 544h171l145 -358l139 358h157z" />
    <glyph glyph-name="uni0444" unicode="&#x444;" horiz-adv-x="829" 
d="M486 754l-1 -193q28 37 107 37q71 -1 123.5 -46.5t52.5 -127.5v-258q0 -83 -51.5 -129t-121.5 -46q-88 2 -110 37l1 -200h-140l1 200q-14 -19 -48 -28.5t-69 -7.5q-70 2 -119.5 47.5t-49.5 126.5v258q0 81 51.5 126.5t121.5 47.5q81 0 113 -37l-1 193h140zM200 400v-214
q0 -37 23 -58t51 -21t51 21t23 58v214q0 37 -23 58t-51 21t-51 -21t-23 -58zM629 186v214q0 37 -23 58t-50 21t-50 -21t-23 -58v-214q0 -37 23 -58t50 -21t50 21t23 58z" />
    <glyph glyph-name="uni0445" unicode="&#x445;" horiz-adv-x="643" 
d="M451 0l-135 193l-134 -193h-174l222 306l-202 282h179l115 -165l115 165h170l-199 -277l226 -311h-183z" />
    <glyph glyph-name="uni0446" unicode="&#x446;" horiz-adv-x="731" 
d="M714 120v-254h-130v134h-509v588h145v-452h239v452h144v-468h111z" />
    <glyph glyph-name="uni0447" unicode="&#x447;" horiz-adv-x="640" 
d="M565 587v-589h-144v238l-230 -1q-97 0 -128.5 41t-31.5 125v186h139v-152q0 -40 14.5 -52.5t49.5 -12.5h187v217h144z" />
    <glyph glyph-name="uni0448" unicode="&#x448;" horiz-adv-x="1013" 
d="M939 0h-864v588h144v-449h215v449h145v-449h215v449h145v-588z" />
    <glyph glyph-name="uni0449" unicode="&#x449;" horiz-adv-x="1065" 
d="M1048 120v-254h-130v134h-843v588h144v-449h215v449h145v-449h215v449h145v-454h11v-14h98z" />
    <glyph glyph-name="uni044A" unicode="&#x44a;" horiz-adv-x="715" 
d="M287 370h223q57 0 98.5 -27.5t60.5 -68.5t19 -89t-19 -89t-60.5 -68.5t-98.5 -27.5h-368v476l-162 -1v113h307v-218zM287 125h192q39 0 55 30.5t0 61.5t-55 31h-192v-123z" />
    <glyph glyph-name="uni044B" unicode="&#x44b;" horiz-adv-x="896" 
d="M219 374h207q51 0 90.5 -20.5t60 -53.5t30 -73t0 -80t-30 -73t-60 -53.5t-90.5 -20.5h-351v588h144v-214zM821 588v-588h-143v588h143zM219 125h179q31 0 49 20t18 43.5t-18 43.5t-49 20h-179v-127z" />
    <glyph glyph-name="uni044C" unicode="&#x44c;" horiz-adv-x="647" 
d="M220 370h223q57 0 98.5 -27.5t60.5 -68.5t19 -89t-19 -89t-60.5 -68.5t-98.5 -27.5h-368v588h145v-218zM220 125h191q40 0 56 30.5t0 61.5t-56 31h-191v-123z" />
    <glyph glyph-name="uni044D" unicode="&#x44d;" horiz-adv-x="669" 
d="M322 603q134 0 214 -84.5t80 -224.5t-80 -224.5t-216 -84.5q-127 0 -204.5 65.5t-86.5 172.5h136q7 -49 47.5 -82.5t102.5 -33.5q64 0 103.5 33t47.5 91h-243v123h244q-8 57 -48.5 92t-103.5 35t-103.5 -34.5t-46.5 -84.5h-136q9 102 88.5 171.5t204.5 69.5z" />
    <glyph glyph-name="uni044E" unicode="&#x44e;" horiz-adv-x="926" 
d="M590 604q135 0 217 -86.5t82 -221.5t-81.5 -222.5t-217.5 -87.5q-120 0 -196 69t-92 182h-85v-237h-142v588h142v-222h87q20 108 95 173t191 65zM590 113q69 0 109 53t40 130q0 76 -40 129t-109 53t-108.5 -53t-39.5 -130t39.5 -129.5t108.5 -52.5z" />
    <glyph glyph-name="uni044F" unicode="&#x44f;" horiz-adv-x="667" 
d="M592 588v-588h-144v197h-169l-82 -197h-158l107 224q-49 18 -75.5 60.5t-27.5 100.5q-1 83 50.5 143t153.5 60h345zM448 320v147h-177q-40 0 -59 -21.5t-19 -50.5q0 -31 19 -53t59 -22h177z" />
    <glyph glyph-name="uni0451" unicode="&#x451;" horiz-adv-x="671" 
d="M268 756v-113l-148 -1v114h148zM553 756v-114l-148 1v113h148zM341 603q135 0 214 -90t75 -261h-444q2 -61 46 -102t114 -41q102 0 141 94h137q-25 -97 -98 -157.5t-185 -60.5q-141 0 -222.5 84.5t-81.5 219.5q0 137 83.5 225.5t220.5 88.5zM339 481q-54 0 -95.5 -31.5
t-52.5 -84.5h289q-8 54 -46 85t-95 31z" />
    <glyph glyph-name="uni0456" unicode="&#x456;" horiz-adv-x="427" 
 />
    <glyph glyph-name="uni0458" unicode="&#x458;" horiz-adv-x="427" 
 />
    <glyph glyph-name="uni04C0" unicode="&#x4c0;" horiz-adv-x="460" 
 />
    <glyph glyph-name="endash" unicode="&#x2013;" horiz-adv-x="674" 
 />
    <glyph glyph-name="emdash" unicode="&#x2014;" horiz-adv-x="954" 
d="M924 400v-150h-894v150h894z" />
    <glyph glyph-name="quoteleft" unicode="&#x2018;" horiz-adv-x="604" 
 />
    <glyph glyph-name="quoteright" unicode="&#x2019;" horiz-adv-x="604" 
 />
    <glyph glyph-name="quotesinglbase" unicode="&#x201a;" 
 />
    <glyph glyph-name="quotedblleft" unicode="&#x201c;" horiz-adv-x="602" 
d="M166 776h77q-28 -47 -42.5 -100.5t-14.5 -87.5h85v-194h-174v137q0 66 21 136t48 109zM521 588v-194h-175v137q0 66 21 135.5t48 109.5h78q-29 -46 -43 -100t-14 -88h85z" />
    <glyph glyph-name="quotedblright" unicode="&#x201d;" horiz-adv-x="665" 
d="M117 754h174v-137q0 -66 -21 -136t-48 -109h-77q28 47 42.5 101t14.5 87h-85v194zM541 754v-137q0 -66 -21 -136t-48 -109h-77q28 47 42.5 101t14.5 87h-86v194h175z" />
    <glyph glyph-name="quotedblbase" unicode="&#x201e;" horiz-adv-x="629" 
d="M96 194h175v-137q0 -66 -21 -135.5t-48 -109.5h-77q28 47 42.5 100.5t14.5 87.5h-86v194zM521 194v-137q0 -66 -21 -135.5t-48 -109.5h-78q29 46 43 100t14 88h-85v194h175z" />
    <glyph glyph-name="bullet" unicode="&#x2022;" 
 />
    <glyph glyph-name="ellipsis" unicode="&#x2026;" horiz-adv-x="865" 
 />
    <glyph glyph-name="guilsinglleft" unicode="&#x2039;" 
 />
    <glyph glyph-name="guilsinglright" unicode="&#x203a;" 
 />
    <glyph glyph-name="uni2116" unicode="&#x2116;" horiz-adv-x="1043" 
 />
    <glyph glyph-name="minus" unicode="&#x2212;" horiz-adv-x="651" 
 />
    <glyph glyph-name="Klegs" 
d="M646 437v-154h-284q-38 0 -53.5 -13t-16.5 -52l-5 -89q-4 -77 -26.5 -103t-80.5 -26h-112v127q41 0 53.5 9.5t13.5 37.5l5 111q2 64 40 91q-32 25 -32 74l-3 74q-1 34 -11.5 45t-49.5 11v120h104q103 0 106 -106l1 -101q1 -56 54 -56h297z" />
    <glyph glyph-name="kleg" 
d="M554 244l4 -97q1 -25 12.5 -30.5t46.5 -5.5v-111h-84q-57 0 -81 16.5t-26 73.5l-2 71q-2 37 -11.5 49t-48.5 12h-207v134h217q46 0 49 60l3 70q3 56 28 79t75 23h85v-109q-26 0 -36 -1.5t-17 -10.5t-8 -30l-4 -63q-3 -38 -22 -64q25 -27 27 -66z" />
    <glyph glyph-name="newGlyph" horiz-adv-x="1427" 
 />
    <glyph glyph-name="noga" horiz-adv-x="453" 
 />
    </font>
</defs>
</svg>
